#TITLE:Wind God Girl;
#SUBTITLE:;
#ARTIST:UI-70;
#TITLETRANSLIT:;
#SUBTITLETRANSLIT:;
#ARTISTTRANSLIT:;
#CREDIT:;
#BANNER:windgodgirl-bn.jpg;
#BACKGROUND:windgodgirl-bg.jpg;
#LYRICSPATH:;
#CDTITLE:zXiaoCD2.png;
#MUSIC:07. Wind God Girl [Touhou - Phantasmagoria of Flower View].mp3;
#OFFSET:1.168;
#SAMPLESTART:82.460;
#SAMPLELENGTH:12.000;
#SELECTABLE:YES;
#BPMS:0.000=199.960;
#STOPS:;
#BGCHANGES:;
// cache tags:
#FIRSTBEAT:4.000;
#LASTBEAT:1084.500;
#SONGFILENAME:Songs/nhac/Wind God Girl (Xiaounlimited)/windgodgirl.sm;
#HASMUSIC:1;
#HASBANNER:1;
#MUSICLENGTH:329.848;
// end cache tags

//---------------dance-single - ----------------
#NOTES:
     dance-single:
     :
     Hard:
     15:
     1.000,1.000,1.000,0.524,1.000,3673.000,825.000,173.000,0.000,30.000:
0000
0000
0000
0000
,
1011
1011
0010
0001
0010
0100
1000
0100
,
0010
0001
0010
0100
1000
0100
1000
1101
,
1101
0001
0010
0100
1000
0100
0010
0001
,
0010
0100
1000
0100
0010
0001
0010
0100
,
1011
0100
0010
0001
0010
0100
1000
0100
,
0010
0001
0010
0100
1000
0100
0010
0111
,
0111
0100
1000
0100
0010
0001
0010
0100
,
1001
0010
0100
1000
0100
0010
1100
0010
0001
0010
0100
0010
1001
0010
1000
0010
,
0001
0100
0001
0100
0001
0100
0010
0100
0010
0100
0010
0001
0100
0001
0100
0001
,
1000
0100
1000
0100
1000
0100
0010
0100
0010
0100
0010
0100
0001
0010
0001
0010
,
0100
0001
0100
0001
0100
0001
1000
0001
1000
0001
1000
0001
0010
0001
0010
0001
,
0100
0010
0100
0010
0100
0010
1000
0001
1000
0001
1000
0001
0010
0001
0010
0001
,
1000
0100
1000
0100
1000
0100
0001
0010
0001
0010
0001
0010
0100
1000
0100
1000
,
0010
1000
0010
1000
0010
1000
0100
0010
0100
0010
0100
0010
0001
0100
0001
0100
,
0022
0033
0000
0000
0100
0000
0000
0000
0001
0000
0000
0000
0010
0000
0000
0000
0100
0000
0000
0000
0010
0000
0000
0000
1100
0000
0000
0000
0001
0000
0000
0000
0010
0000
0000
0000
0100
0000
0000
0000
1000
0000
0000
0000
0100
0000
0000
0000
0011
0000
0000
0000
0100
0000
0000
0000
0001
0000
0000
0000
1000
0000
0000
0000
,
0101
0010
0001
1000
0100
1000
0011
0100
0001
0010
0001
0010
1001
0010
0100
0010
,
2002
3003
0000
0000
0100
0000
0000
0000
1000
0000
0000
0000
0010
0000
0000
0000
1000
0000
0000
0000
0100
0000
0000
0000
0010
0000
0000
0000
0001
0000
0000
0000
0010
0000
0000
0000
0100
0000
0000
0000
0010
0000
0000
0000
0001
0000
0000
0000
0100
0000
0000
0000
0010
0000
0000
0000
1000
0000
0000
0000
0100
0000
0000
0000
,
0010
0100
0010
1000
0010
0100
0001
1000
0001
0100
0001
1000
0010
0001
0100
0010
,
1000
0100
1000
0010
1000
0010
0100
1000
0100
0001
0100
1000
0010
0001
0010
1000
,
0001
0100
0010
1000
0001
0010
1000
0100
0010
0100
1000
0010
0001
0010
1100
0001
,
2020
3030
0000
0000
0100
0000
0000
0000
0010
0000
0000
0000
0001
0000
0000
0000
1000
0000
0000
0000
0010
0000
0000
0000
1000
0000
0000
0000
0100
0000
0000
0000
0010
0000
0000
0000
0001
0000
0000
0000
1000
0000
0000
0000
0010
0000
0000
0000
1000
0000
0000
0000
0100
0000
0000
0000
0010
0000
0000
0000
0001
0000
0000
0000
,
0010
0100
0010
0001
0100
0010
1000
0100
0010
0001
0100
0010
1000
0100
0010
0001
,
2020
3030
0000
0000
0100
0000
0000
0000
0010
0000
0000
0000
0001
0000
0000
0000
0010
0000
0000
0000
0100
0000
0000
0000
2002
3003
0000
0000
0100
0000
0000
0000
0010
0000
0000
0000
0001
0000
0000
0000
0010
0000
0000
0000
0100
0000
0000
0000
1001
0000
0000
0000
0100
0000
0000
0000
0010
0000
0000
0000
0001
0000
0000
0000
,
1010
0100
0010
0001
0010
0100
1010
0001
0010
0100
1000
0001
1100
0010
0100
0001
,
2200
3300
0000
0000
0000
0000
0000
0000
1100
0000
0000
0000
0000
0000
0000
0000
0010
0000
0000
0000
0001
0000
0000
0000
0110
0000
0000
0000
0000
0000
0000
0000
0011
0000
0000
0000
0000
0000
0000
0000
0010
0000
0000
0000
0000
0000
0000
0000
0100
0000
0000
0000
1000
0000
0000
0000
0100
0000
0000
0000
0000
0000
0000
0000
,
1000
0000
1100
0000
0110
1000
0011
0000
0101
0000
1010
0000
0100
0001
1100
0000
,
0110
0000
0110
0000
0010
0100
1010
0000
0011
0000
0010
0000
0100
1000
0100
0000
,
1000
0000
0010
0000
0100
0001
0100
0000
0001
0010
0100
1000
0010
0100
0001
0010
,
1100
0000
1100
0000
0010
0001
0110
0000
0011
0000
0010
0000
0100
1000
0100
0000
,
1000
0000
1010
0000
1100
0001
0110
0000
0011
0000
0101
0000
0010
0100
1010
0000
,
1100
0000
1100
0000
0100
1000
0110
0000
0011
0000
0001
0000
0001
0010
1000
0100
,
1001
0010
0001
0100
0010
1000
0100
0001
0010
1000
0100
0001
1000
0010
0001
1000
,
2002
3003
0000
0000
0000
0000
0000
0000
1001
0000
0000
0000
0000
0000
0000
0000
0100
0000
0000
0000
0001
0000
0000
0000
0110
0000
0000
0000
0000
0000
0000
0000
0011
0000
0000
0000
0000
0000
0000
0000
0010
0000
0000
0000
0000
0000
0000
0000
0100
0000
0000
0000
1000
0000
0000
0000
0100
0000
0000
0000
0000
0000
0000
0000
,
1000
0000
1100
0000
0110
1000
0011
0000
0101
0000
1001
0000
0100
0001
1010
0000
,
1100
0000
1100
0000
0010
0001
0110
0000
0011
0000
0010
0000
0100
1000
0100
0000
,
1000
0000
0010
0000
0100
0001
0100
0000
0010
0000
0001
0000
1000
0001
0010
0100
,
2002
3003
0000
0000
0000
0000
0000
0000
1100
0000
0000
0000
0000
0000
0000
0000
0001
0000
0000
0000
1000
0000
0000
0000
0110
0000
0000
0000
0000
0000
0000
0000
0011
0000
0000
0000
0000
0000
0000
0000
0010
0000
0000
0000
0000
0000
0000
0000
0100
0000
0000
0000
1000
0000
0000
0000
0100
0000
0000
0000
0000
0000
0000
0000
,
1000
0000
1100
0000
0110
1000
0011
0000
0101
0000
1010
0000
0001
0100
1010
0000
,
1100
0000
1100
0000
0001
1000
0110
0000
0011
0000
0010
0000
1001
0000
1100
0000
,
2022
3033
0000
0000
0100
0000
0000
0000
0001
0000
0000
0000
0010
0000
0000
0000
0100
0000
0000
0000
1000
0000
0000
0000
0010
0000
0000
0000
0100
0000
0000
0000
0010
0000
0000
0000
0001
0000
0000
0000
0010
0000
0000
0000
0100
0000
0000
0000
1000
0000
0000
0000
0010
0000
0000
0000
1000
0000
0000
0000
0100
0000
0000
0000
,
2002
3003
0000
0000
0010
0000
0000
0000
1001
0000
0000
0000
0000
0000
0000
0000
0000
0000
0000
0000
0000
0000
0000
0000
0110
0000
0000
0000
1000
0000
0000
0000
0101
0000
0000
0000
1000
0000
0000
0000
0101
0000
0000
0000
0000
0000
0000
0000
0000
0000
0000
0000
0000
0000
0000
0000
1000
0000
0000
0000
0001
0000
0000
0000
,
1000
0001
1100
0000
0110
0000
0011
1000
0101
0010
1100
0010
0100
0001
1010
0001
,
1100
0010
1100
0000
0000
0000
0110
1000
0011
1000
0010
0000
0000
0000
1000
0001
,
1000
0001
1000
0000
0000
0000
0100
0010
0100
0010
0100
0001
0010
0100
1000
0010
,
1100
0001
1100
0000
0000
0000
0110
1000
0011
1000
0010
0000
0000
0000
0000
0000
,
0100
0010
1100
0000
0110
1000
0011
0000
0101
1000
0011
0100
0001
0100
1001
0100
,
1010
0001
1100
0010
0001
1000
0110
1000
0011
0100
0010
0001
0100
0010
1000
0010
,
1001
0010
0100
0010
1100
0010
0100
0001
0110
0001
0010
1000
0101
1000
0001
1000
,
0022
0033
0000
0000
0100
0000
0000
0000
1000
0000
0000
0000
0010
0000
0000
0000
0100
0000
0000
0000
0001
0000
0000
0000
1100
0000
0000
0000
0001
0000
0000
0000
1100
0000
0000
0000
0001
0000
0000
0000
0110
0000
0000
0000
1000
0000
0000
0000
0100
0000
0000
0000
1000
0000
0000
0000
0011
0000
0000
0000
0100
0000
0000
0000
,
1010
0100
0001
0010
0100
0010
1100
0001
1100
0001
0110
1000
0001
0100
0011
0100
,
1010
0100
0001
0010
0100
0001
1010
0001
0110
1000
0011
0100
1000
0100
1001
0010
,
1100
0010
0001
0100
0010
1000
0100
0010
0001
0010
1100
0010
0100
1000
0110
1000
,
0011
0100
1000
0010
0100
0001
1010
0001
0110
1000
0101
0010
1000
0100
0011
0100
,
1010
0100
0001
0010
0100
0001
1100
0001
0110
1000
0011
0100
0010
0100
1001
0100
,
0012
0100
1000
0100
0010
0100
1000
0100
0010
0100
1000
0100
0010
0100
1000
0100
,
0010
0100
1000
0100
0010
0100
1000
0100
0013
0001
0100
0010
1001
0010
0101
1000
,
0022
0033
0000
0000
0100
0000
0000
0000
1000
0000
0000
0000
0010
0000
0000
0000
0100
0000
0000
0000
0001
0000
0000
0000
1100
0000
0000
0000
0001
0000
0000
0000
1100
0000
0000
0000
0001
0000
0000
0000
1010
0000
0000
0000
0100
0000
0000
0000
1000
0000
0000
0000
0100
0000
0000
0000
0011
0000
0000
0000
1000
0000
0000
0000
,
0101
0010
0001
0010
0100
0001
1100
0001
1100
0001
0110
1000
0100
1000
0011
0100
,
1010
0100
0001
0010
0100
0001
1100
0001
1100
0001
0110
1000
0100
0001
0110
0001
,
1100
0001
1010
0100
1000
0010
0101
0010
1100
0001
0100
1000
0110
1000
0100
1000
,
0022
0033
0000
0000
0100
0000
0000
0000
0010
0000
0000
0000
0001
0000
0000
0000
0100
0000
0000
0000
0001
0000
0000
0000
1100
0000
0000
0000
0001
0000
0000
0000
1100
0000
0000
0000
0001
0000
0000
0000
0110
0000
0000
0000
1000
0000
0000
0000
0010
0000
0000
0000
1000
0000
0000
0000
0011
0000
0000
0000
1000
0000
0000
0000
,
0101
1000
0100
0010
0100
0001
1100
0001
1100
0001
0110
1000
0100
0010
1001
0100
,
0011
0000
0000
0000
0100
0000
0000
0000
1000
0000
0000
0000
0100
0000
0000
0000
1001
0000
0000
0000
0100
0000
0000
0000
0010
0000
0000
0000
0001
0000
0000
0000
1100
0000
0000
0000
0010
0000
0000
0000
1100
0000
0000
0000
0010
0000
0000
0000
0001
0000
0000
0000
0100
0000
0000
0000
2002
3003
0000
0000
0100
0000
0000
0000
,
1000
0001
0010
0100
1000
0001
1000
0001
0010
0100
1000
0010
0100
0010
0001
0010
,
2000
0000
0000
0000
,
3001
0000
0000
0000
0000
0000
0000
0000
0001
0000
0000
0000
0000
0000
0000
0000
0011
0000
0000
0000
0000
0000
0000
0000
0011
0000
0000
0000
0000
0000
0000
0000
0011
0000
0000
0000
0000
0000
0000
0000
0000
0000
0000
0000
0000
0000
0000
0000
2022
3033
0000
0000
0000
0000
0000
0000
0000
0000
0000
0000
0000
0000
0000
0000
,
1001
0100
1000
0100
1001
0100
0010
0100
1010
0100
0010
0100
1001
0010
0001
0010
,
0101
1000
0100
1000
0101
1000
0010
1000
0011
1000
0010
1000
0011
0100
0001
0100
,
0011
1000
0001
1000
0101
1000
0010
1000
0110
1000
0010
1000
0110
0001
0100
0001
,
1010
0100
0010
0100
0011
0100
1000
0010
1001
0010
1000
0010
1001
0100
0001
0100
,
0011
1000
0010
1000
0110
1000
0001
1000
0011
1000
0001
1000
0011
0100
0010
0100
,
0011
1000
0100
1000
0110
1000
0001
0100
0011
0100
0001
0100
1010
0001
0010
0001
,
1010
0000
0000
0000
0100
0000
0000
0000
1000
0000
0000
0000
0100
0000
0000
0000
1010
0000
0000
0000
0001
0000
0000
0000
0100
0000
0000
0000
0010
0000
0000
0000
1100
0000
0000
0000
0010
0000
0000
0000
0100
0000
0000
0000
1000
0000
0000
0000
0202
0303
0000
0000
0010
0000
0000
0000
0001
0000
0000
0000
0010
0000
0000
0000
,
1001
0000
0000
0000
0100
0000
0000
0000
0010
0000
0000
0000
0001
0000
0000
0000
0110
0000
0000
0000
0001
0000
0000
0000
0010
0000
0000
0000
0100
0000
0000
0000
1001
0000
0000
0000
0100
0000
0000
0000
0010
0000
0000
0000
0001
0000
0000
0000
2200
3300
0000
0000
0001
0000
0000
0000
0010
0000
0000
0000
0100
0000
0000
0000
,
2002
3003
0000
0000
0100
0000
0000
0000
1000
0000
0000
0000
0100
0000
0000
0000
1001
0000
0000
0000
0100
0000
0000
0000
0010
0000
0000
0000
0100
0000
0000
0000
1010
0000
0000
0000
0100
0000
0000
0000
0010
0000
0000
0000
0100
0000
0000
0000
1001
0000
0000
0000
0010
0000
0000
0000
0001
0000
0000
0000
0010
0000
0000
0000
,
0101
1000
0100
1000
0101
1000
0010
1000
0011
1000
0010
1000
0011
0100
0001
0100
,
1010
0001
0010
0001
1010
0001
1000
0100
1001
0100
1000
0100
1010
0100
0010
0100
,
1001
0010
1000
0010
1001
0010
0100
0010
0101
0010
0100
0010
1001
0100
0001
0100
,
2020
3030
0000
0000
0001
0000
0000
0000
0010
0000
0000
0000
0100
0000
0000
0000
1001
0000
0000
0000
0010
0000
0000
0000
0001
0000
0000
0000
0010
0000
0000
0000
0101
0000
0000
0000
0010
0000
0000
0000
0100
0000
0000
0000
0010
0000
0000
0000
1001
0000
0000
0000
0010
0000
0000
0000
1000
0000
0000
0000
0010
0000
0000
0000
,
0101
1000
0100
1000
0110
1000
0010
1000
0011
0100
0010
0100
1001
0100
0001
0100
,
0011
1000
0100
0010
0001
1000
0100
0010
0001
1000
0100
0010
0001
1000
0100
0010
,
1001
0100
0010
0100
0001
1000
0010
0100
0010
1000
0001
0100
0010
0100
0001
1000
,
0220
0330
0000
0000
0000
0000
0000
0000
1100
0000
0000
0000
0000
0000
0000
0000
0010
0000
0000
0000
0001
0000
0000
0000
0110
0000
0000
0000
0000
0000
0000
0000
0011
0000
0000
0000
0000
0000
0000
0000
0010
0000
0000
0000
0000
0000
0000
0000
0100
0000
0000
0000
1000
0000
0000
0000
0100
0000
0000
0000
0000
0000
0000
0000
,
1000
0000
1100
0000
0110
1000
0011
0000
0101
0000
1100
0000
0010
0001
1100
0000
,
1100
0000
0110
0000
0100
1000
0110
0000
0101
0000
0010
0000
0100
1000
0100
0000
,
1000
0000
1000
0000
0001
0010
0001
0000
0001
0010
0100
1000
0010
0100
0001
0010
,
1100
0000
1100
0000
0010
0001
0110
0000
0101
0000
0010
0000
0100
1000
0100
0000
,
1000
0000
1100
0000
0110
1000
0101
0000
0011
0000
1010
0000
0010
0001
1100
0000
,
1100
0000
0110
0000
0010
0001
0110
0000
0011
0000
0010
0000
0001
0010
1000
0100
,
1000
0010
0100
1000
0001
0010
1000
0100
0010
0001
1000
0010
0100
0001
1000
0100
,
2020
3030
0000
0000
0001
0000
0000
0000
1010
0000
0000
0000
0000
0000
0000
0000
0000
0000
0000
0000
0000
0000
0000
0000
0110
0000
0000
0000
1000
0000
0000
0000
0011
0000
0000
0000
1000
0000
0000
0000
0010
0000
0000
0000
0000
0000
0000
0000
0000
0000
0000
0000
0000
0000
0000
0000
0100
0000
0000
0000
0010
0000
0000
0000
,
0100
0010
1100
0000
0110
0000
0011
1000
0101
0010
1001
0010
0001
0010
0101
0010
,
1100
0001
1100
0000
0000
0000
0110
1000
0101
1000
0100
0000
0000
0000
0100
0001
,
0100
0001
0100
0000
0000
0000
0010
0100
0010
1000
0010
1000
0100
1000
0100
1000
,
0110
0001
0110
0000
0000
0000
1010
0100
0011
0100
0010
0000
0000
0000
0000
0000
,
1000
0001
1100
0000
0110
1000
0011
0000
0101
0010
1100
0010
0100
0001
1010
0001
,
2200
3300
0000
0000
0001
0000
0000
0000
1100
0000
0000
0000
0001
0000
0000
0000
0100
0000
0000
0000
1000
0000
0000
0000
0110
0000
0000
0000
1000
0000
0000
0000
0011
0000
0000
0000
1000
0000
0000
0000
0010
0000
0000
0000
0001
0000
0000
0000
0100
0000
0000
0000
0010
0000
0000
0000
1000
0000
0000
0000
0100
0000
0000
0000
,
1001
0000
0000
0000
2000
0000
0000
0000
0200
0000
0000
0000
0020
0000
0000
3330
,
2002
3003
0000
0000
0010
0000
0000
0000
0100
0000
0000
0000
0010
0000
0000
0000
1000
0000
0000
0000
0001
0000
0000
0000
1100
0000
0000
0000
0001
0000
0000
0000
1100
0000
0000
0000
0001
0000
0000
0000
0110
0000
0000
0000
1000
0000
0000
0000
0100
0000
0000
0000
1000
0000
0000
0000
0011
0000
0000
0000
0100
0000
0000
0000
,
1001
0100
0010
0001
0100
0001
1100
0001
1100
0001
0110
1000
0001
0100
0011
0100
,
1001
0010
0100
1000
0010
0001
1100
0001
1100
0001
0110
1000
0010
0100
0011
0100
,
1010
0001
0100
0010
1000
0100
0010
0001
0010
0001
1100
0010
0001
0100
1010
0100
,
0011
0100
1000
0010
0100
0001
1100
0001
1100
0001
0110
0001
0010
0100
0011
0100
,
1001
0100
0001
0010
1100
0001
1100
0001
0110
1000
0100
0010
0100
0010
1001
0100
,
0011
0100
0001
0100
0010
0100
1000
0100
0010
0100
0001
0100
0010
0100
1000
0100
,
0010
0000
0000
0000
0001
0000
0000
0000
0010
0000
0000
0000
1000
0000
0000
0000
0100
0000
0000
0000
0010
0000
0000
0000
0001
0000
0000
0000
1000
0000
0000
0000
0100
0000
0000
0000
0010
0000
0000
0000
2002
3003
0000
0000
0010
0000
0000
0000
0100
0000
0000
0000
1000
0000
0000
0000
0110
0000
0000
0000
1000
0000
0000
0000
,
0022
0033
0000
0000
0100
0000
0000
0000
0010
0000
0000
0000
0001
0000
0000
0000
0100
0000
0000
0000
0001
0000
0000
0000
1100
0000
0000
0000
0001
0000
0000
0000
1100
0000
0000
0000
0010
0000
0000
0000
0101
0000
0000
0000
1000
0000
0000
0000
0100
0000
0000
0000
1000
0000
0000
0000
0101
0000
0000
0000
0010
0000
0000
0000
,
1001
0010
0100
1000
0001
0010
1100
0001
1100
0001
0110
1000
0100
0010
0101
0010
,
1001
0100
0001
0100
0010
0001
1010
0100
1010
0100
0011
1000
0010
0001
1100
0001
,
1010
0100
0011
0100
0010
0001
1100
0010
1100
0010
1001
0100
1000
0100
0011
1000
,
0202
0303
0000
0000
0010
0000
0000
0000
1000
0000
0000
0000
0100
0000
0000
0000
0001
0000
0000
0000
0010
0000
0000
0000
1100
0000
0000
0000
0001
0000
0000
0000
1100
0000
0000
0000
0001
0000
0000
0000
0110
0000
0000
0000
1000
0000
0000
0000
0100
0000
0000
0000
1000
0000
0000
0000
0011
0000
0000
0000
1000
0000
0000
0000
,
0101
0010
0100
0010
0001
0010
1100
0001
1100
0001
1010
0100
1000
0100
0011
1000
,
0110
0001
0001
0010
0100
0010
1000
0001
0001
0100
0010
0100
1000
0001
0001
0010
,
0100
1000
0010
0001
0001
0100
0010
1000
0011
0000
0011
0000
0000
0000
0011
0000
,
2022
3033
0000
0000
0000
0000
0000
0000
1100
0000
0000
0000
0000
0000
0000
0000
0110
0000
0000
0000
0000
0000
0000
0000
0011
0000
0000
0000
0000
0000
0000
0000
0101
0000
0000
0000
0000
0000
0000
0000
1010
0000
0000
0000
0000
0000
0000
0000
0011
0000
0000
0000
0000
0000
0000
0000
0110
0000
0000
0000
0000
0000
0000
0000
,
2022
3033
0000
0000
0000
0000
0000
0000
1100
0000
0000
0000
0000
0000
0000
0000
0110
0000
0000
0000
0000
0000
0000
0000
0011
0000
0000
0000
0000
0000
0000
0000
0101
0000
0000
0000
0000
0000
0000
0000
1010
0000
0000
0000
0000
0000
0000
0000
0011
0000
0000
0000
0000
0000
0000
0000
0110
0000
0000
0000
0000
0000
0000
0000
,
2022
3033
0000
0000
0000
0000
0000
0000
1100
0000
0000
0000
0000
0000
0000
0000
0110
0000
0000
0000
0000
0000
0000
0000
0011
0000
0000
0000
0000
0000
0000
0000
0101
0000
0000
0000
0000
0000
0000
0000
0011
0000
0000
0000
0000
0000
0000
0000
0110
0000
0000
0000
0000
0000
0000
0000
1100
0000
0000
0000
0000
0000
0000
0000
,
2022
3033
0000
0000
0000
0000
0000
0000
1100
0000
0000
0000
0000
0000
0000
0000
0110
0000
0000
0000
0000
0000
0000
0000
0011
0000
0000
0000
0000
0000
0000
0000
1010
0000
0000
0000
0000
0000
0000
0000
0011
0000
0000
0000
0000
0000
0000
0000
0110
0000
0000
0000
0000
0000
0000
0000
1100
0000
0000
0000
0000
0000
0000
0000
,
2202
3303
0000
0000
0010
0000
0000
0000
0001
0000
0000
0000
0100
0000
0000
0000
0001
0000
0000
0000
0100
0000
0000
0000
0001
0000
0000
0000
0100
0000
0000
0000
0022
0033
0000
0000
1000
0000
0000
0000
0001
0000
0000
0000
1000
0000
0000
0000
0001
0000
0000
0000
0100
0000
0000
0000
0001
0000
0000
0000
0100
0000
0000
0000
,
2002
3003
0000
0000
0010
0000
0000
0000
0001
0000
0000
0000
0010
0000
0000
0000
0001
0000
0000
0000
0010
0000
0000
0000
0100
0000
0000
0000
1000
0000
0000
0000
0202
0303
0000
0000
0010
0000
0000
0000
0001
0000
0000
0000
0100
0000
0000
0000
0010
0000
0000
0000
1000
0000
0000
0000
0100
0000
0000
0000
0010
0000
0000
0000
,
1001
0010
0100
0001
0010
0100
1000
0010
0001
0010
0100
0001
0010
0100
1000
0001
,
1000
0100
0010
1000
0100
0010
0001
0010
0100
0010
1000
0001
0100
0001
0010
1000
,
0022
0033
0000
0000
1000
0000
0000
0000
0010
0000
0000
0000
1000
0000
0000
0000
0100
0000
0000
0000
0010
0000
0000
0000
0100
0000
0000
0000
0010
0000
0000
0000
1001
0000
0000
0000
0000
0000
0000
0000
0110
0000
0000
0000
0000
0000
0000
0000
0011
0000
0000
0000
0000
0000
0000
0000
0101
0000
0000
0000
0000
0000
0000
0000
,
1001
0100
0010
0100
1000
0001
0100
0010
1001
0000
0101
0000
0110
0000
0101
0000
,
1001
0010
1000
0010
0001
0100
0001
0100
1001
0000
0110
0000
0011
0000
0101
0000
,
1001
0100
0010
0001
0100
0010
0100
0010
1001
0000
0110
0000
0011
0000
0101
0000
,
1010
0001
1000
0001
0010
0001
1000
0001
0010
0001
1000
0001
0010
0001
1000
0001
,
0100
1000
0001
1000
0100
1000
0001
1000
0100
1000
0001
1000
0100
1000
0001
0100
,
1000
1000
0100
0100
0010
0010
0001
0001
0100
0100
0010
0010
0001
0001
1000
1000
,
0010
1000
0001
0010
0100
1000
0010
0100
1000
0010
1000
0100
0010
0001
0100
0010
,
2002
3003
0000
0000
0010
0000
0000
0000
0100
0000
0000
0000
1000
0000
0000
0000
0010
0000
0000
0000
0100
0000
0000
0000
0001
0000
0000
0000
0010
0000
0000
0000
1100
0000
0000
0000
0000
0000
0000
0000
0110
0000
0000
0000
0000
0000
0000
0000
0101
0000
0000
0000
0000
0000
0000
0000
1100
0000
0000
0000
0000
0000
0000
0000
,
1001
0100
0010
0001
0100
0010
1000
0100
1001
0000
0101
0000
0011
0000
1010
0000
,
1001
0010
0100
0010
1000
0100
0001
0010
1001
0000
0110
0000
0011
0000
0101
0000
,
1001
0100
0010
0001
0010
0100
0001
0100
1001
0000
0101
0000
0011
0000
0101
0000
,
1010
0100
1000
0100
0010
0100
0001
0100
1000
0100
0010
0100
0001
0100
0010
0100
,
0010
1000
0100
1000
0001
1000
0100
1000
0010
1000
0001
1000
0100
1000
0010
1000
,
0101
0010
0100
0010
1000
0010
0100
1000
0001
0010
0100
1000
0001
0010
0100
1000
,
0110
1000
0100
1000
0100
1000
0011
1000
0100
1000
0100
1000
0022
0000
1133
0000
,
2002
0000
0000
3003
0000
0000
0000
0000
0100
0000
0000
0000
0000
0000
0000
0000
0010
0000
0000
0000
0000
0000
0000
0000
0001
0000
0000
0000
0000
0000
0000
0000
0000
0000
0000
0000
0010
0000
0000
0000
0000
0000
0000
0000
0000
0000
0000
0000
0100
0000
0000
0000
0000
0000
0000
0000
0000
0000
0000
0000
1000
0000
0000
0000
0000
0000
0000
0000
0000
0000
0000
0000
0100
0000
0000
0000
0000
0000
0000
0000
0000
0000
0000
0000
0010
0000
0000
0000
0000
0000
0000
0000
0000
0000
0000
0000
0001
0000
0000
0000
0000
0000
0000
0000
0010
0000
0000
0000
0000
0000
0000
0000
0100
0000
0000
0000
0000
0000
0000
0000
1000
0000
0000
0000
0000
0000
0000
0000
0000
0000
0000
0000
0100
0000
0000
0000
0000
0000
0000
0000
0000
0000
0000
0000
0010
0000
0000
0000
0000
0000
0000
0000
0000
0000
0000
0000
0001
0000
0000
0000
0000
0000
0000
0000
0000
0000
0000
0000
0010
0000
0000
0000
0000
0000
0000
0000
0100
0000
0000
0000
0000
0000
0000
0000
1000
0000
0000
0000
0000
0000
0000
0000
,
0100
0000
0000
0010
0000
0000
0001
0000
0000
0010
0000
0000
0100
0000
1000
0000
0100
0000
0010
0000
0000
0001
0000
0000
0010
0000
0000
0100
0000
0000
1000
0000
0100
0000
0010
0000
0001
0000
0000
0010
0000
0000
0100
0000
0000
1000
0000
0000
,
0012
1000
0100
1000
0010
1000
0100
1000
0010
1000
0100
1000
0013
1000
0011
0100
,
0001
0100
0010
1000
0100
0001
0100
0010
0001
0100
0010
1000
0001
0100
0010
1000
,
0110
0000
1000
0000
0110
0000
0001
0000
1001
0010
0100
1000
0010
0100
0010
0001
,
0010
0100
1000
0010
0100
1000
0001
0010
0001
0010
0100
1000
0010
0100
0010
0001
,
1010
0100
0010
0100
0010
0100
0010
0100
0001
1000
0001
1000
0001
1000
0001
0010
,
1001
0010
1000
0010
0100
1000
0100
1000
0010
0100
0010
0100
0001
0010
0001
0010
,
2002
3003
0000
0000
0100
0000
0000
0000
1000
0000
0000
0000
0100
0000
0000
0000
0010
0000
0000
0000
1000
0000
0000
0000
0010
0000
0000
0000
1000
0000
0000
0000
0100
0000
0000
0000
0010
0000
0000
0000
0100
0000
0000
0000
0010
0000
0000
0000
0001
0000
0000
0000
0100
0000
0000
0000
0001
0000
0000
0000
0100
0000
0000
0000
,
0010
1000
0010
1000
0001
1000
0001
1000
0010
0100
0010
0100
0011
0001
0010
0100
,
1000
0010
0100
1000
0010
0100
0001
0010
0100
1000
0010
0100
0001
0010
0100
1000
,
0010
0100
1000
0001
0010
0100
1000
0100
0022
0000
0033
0000
0010
0001
0010
0001
,
1000
0100
0001
0100
0010
0100
1000
0100
0001
0100
1000
0100
0010
0100
0001
0100
,
1000
0100
0001
0100
0010
0100
1000
0100
0001
0100
1000
0100
0010
0100
0001
0100
,
1000
0100
0010
0001
1000
0010
0100
0001
1000
0100
0010
0001
1000
0010
0100
0001
,
1000
0100
0010
0001
0100
0010
1000
0010
0100
0001
0100
0001
0010
0100
0010
0001
,
2200
0000
0000
0000
,
0000
0000
0000
0000
0000
0000
0000
0000
0000
0000
0000
0000
0000
0000
0000
3300
,
2022
0000
0000
0000
,
0000
0000
0000
0000
0000
0000
0000
0000
0000
0000
0000
0000
0000
3033
0222
0333
,
0222
0000
0000
0000
,
0000
0000
0000
0000
0000
0000
0000
0000
0000
0000
0000
0333
2220
0000
0000
3330
,
2202
0000
0000
0000
,
0000
0000
0000
0000
0000
0000
0000
0000
0000
0000
0000
3303
1010
0100
0010
0100
,
2012
0000
0000
0010
0010
0010
0010
0010
,
3013
0000
0010
0000
0010
0000
0010
0100
0011
0000
2200
0000
0000
3300
0000
0000
,
0011
1000
0011
0000
0000
0000
1001
0010
1001
0000
0000
0000
0100
0000
0100
0000
,
0101
0010
0101
0000
0000
0000
1100
0010
0101
0000
0000
0000
0011
0000
0000
0000
,
1100
0001
1100
0000
0000
0000
0101
0010
1100
0000
0000
0000
0000
0000
0000
0000
,
1001
0010
1001
0000
0000
0000
1010
0100
0011
0000
0000
0000
0110
0000
0000
0000
,
0101
1000
0101
0000
0000
0000
0110
1000
0110
0000
0000
0000
0100
0000
0100
0000
,
0011
1000
0011
0000
0000
0000
0101
1000
0011
0000
0000
0000
0110
0000
0000
0000
,
1010
0001
1100
0000
0000
0000
1010
0100
1001
0000
0000
0000
0100
0000
0100
0000
,
0101
0010
1100
0000
0000
0000
0110
1000
0011
0000
0000
0000
0011
0000
0000
0000
,
1110
0110
0101
0011
0110
1010
1100
0110
,
0101
0011
0110
1010
1100
0110
0101
0011
,
1001
0011
0110
1010
1100
1010
0110
0101
,
0011
0110
1010
1100
1010
0110
0101
0011
,
1001
1100
0110
0101
0011
0101
0110
1010
,
1100
0101
0110
1010
1100
1010
0110
0101
,
0011
1010
0110
0101
0011
0101
0110
1010
,
1001
0100
1000
0100
1000
0100
1000
0100
0010
0001
0010
0001
0010
0001
0010
0001
,
2200
3300
0000
0000
0010
0000
0000
0000
0100
0000
0000
0000
1000
0000
0000
0000
0010
0000
0000
0000
0100
0000
0000
0000
0001
0000
0000
0000
0010
0000
0000
0000
1000
0000
0000
0000
0100
0000
0000
0000
0010
0000
0000
0000
0001
0000
0000
0000
0100
0000
0000
0000
0010
0000
0000
0000
0001
0000
0000
0000
0100
0000
0000
0000
,
0001
0100
0010
0001
0100
0010
1000
0001
0010
1000
0100
1000
0001
1000
0010
1000
,
0200
0300
0000
0000
1000
0000
0000
0000
0010
0000
0000
0000
0100
0000
0000
0000
0001
0000
0000
0000
0100
0000
0000
0000
0010
0000
0000
0000
0001
0000
0000
0000
0100
0000
0000
0000
0001
0000
0000
0000
0010
0000
0000
0000
0100
0000
0000
0000
0001
0000
0000
0000
1000
0000
0000
0000
0010
0000
0000
0000
0001
0000
0000
0000
,
1000
0100
0010
1000
0001
0010
0100
0001
1000
0100
0010
0100
0001
1000
0010
0100
,
1001
0100
1010
0001
0110
1000
0101
1000
0011
1000
0101
1000
0110
0001
1010
0001
,
1100
0010
0101
1000
0110
0001
1010
0001
1100
0001
1010
0001
0110
1000
0101
1000
,
0011
0100
1010
0001
0110
1000
0101
1000
0011
1000
0101
1000
0110
0001
1010
0001
,
1100
0000
0101
0000
0110
0000
1010
0000
1001
0000
1100
0000
,
2002
3003
0000
0000
0100
0000
0000
0000
1001
0000
0000
0000
0100
0000
0000
0000
0010
0000
0000
0000
0001
0000
0000
0000
0010
0000
0000
0000
0001
0000
0000
0000
0100
0000
0000
0000
0010
0000
0000
0000
0100
0000
0000
0000
0010
0000
0000
0000
1000
0000
0000
0000
0100
0000
0000
0000
0010
0000
0000
0000
0001
0000
0000
0000
,
1010
0100
0010
1000
0101
0010
0100
1000
0011
1000
0101
1000
0110
0001
1010
0100
,
1001
0100
0010
0100
0010
1000
0010
1000
0001
0100
1010
0100
0001
1000
0110
1000
,
0101
1000
0010
1000
0100
0001
0100
0001
0010
0100
1000
0010
0100
0010
1000
0100
,
0011
0100
0011
0100
1000
0010
0100
0010
1000
0001
0100
0010
1000
0001
0010
0001
,
1100
0010
1000
0001
0110
1000
0010
0100
0011
1000
0101
1000
0110
0001
1100
0010
,
1001
0100
0010
1000
0100
0010
0001
0010
0101
0010
0100
1000
0010
0001
0010
0100
,
0011
0100
0010
0100
0010
0100
0001
0010
0100
1000
0010
0100
0001
0010
0001
0010
,
0202
0303
0000
0000
0010
0000
0000
0000
0101
0000
0000
0000
0010
0000
0000
0000
0100
0000
0000
0000
1000
0000
0000
0000
0001
0000
0000
0000
0100
0000
0000
0000
1010
0000
0000
0000
0100
0000
0000
0000
1001
0000
0000
0000
0010
0000
0000
0000
0100
0000
0000
0000
0010
0000
0000
0000
1001
0000
0000
0000
0010
0000
0000
0000
,
1100
0001
0100
0010
1000
0001
0010
0100
1010
0001
1100
0010
0001
0010
1100
0001
,
1010
0100
0001
0010
0100
1000
0101
0010
1000
0100
1010
0100
0001
0010
1100
0001
,
0110
1000
0001
0100
0010
0100
0001
0010
0100
0001
1100
0010
0100
1000
0011
0100
,
2020
3030
0000
0000
0001
0000
0000
0000
0100
0000
0000
0000
0010
0000
0000
0000
0100
0000
0000
0000
0001
0000
0000
0000
1000
0000
0000
0000
0010
0000
0000
0000
0001
0000
0000
0000
0100
0000
0000
0000
1010
0000
0000
0000
0001
0000
0000
0000
0010
0000
0000
0000
0001
0000
0000
0000
1100
0000
0000
0000
0001
0000
0000
0000
,
1010
0100
1000
0001
0110
1000
0100
0010
1001
0010
0100
0010
1001
0100
1010
0100
,
0011
1000
0100
0010
0001
0100
0011
1000
0100
0010
0001
0100
0010
1000
0011
0100
,
2002
3003
0000
0000
0010
0000
0000
0000
0100
0000
0000
0000
0010
0000
0000
0000
0001
0000
0000
0000
0100
0000
0000
0000
0010
0000
0000
0000
1000
0000
0000
0000
0001
0000
0000
0000
0010
0000
0000
0000
0100
0000
0000
0000
1000
0000
0000
0000
0001
0000
0000
0000
0010
0000
0000
0000
0100
0000
0000
0000
0010
0000
0000
0000
,
2002
3003
0000
0000
0010
0000
0000
0000
1001
0000
0000
0000
0000
0000
0000
0000
0000
0000
0000
0000
0000
0000
0000
0000
0110
0000
0000
0000
1000
0000
0000
0000
0011
0000
0000
0000
1000
0000
0000
0000
0010
0000
0000
0000
0000
0000
0000
0000
0000
0000
0000
0000
0000
0000
0000
0000
1000
0000
0000
0000
0001
0000
0000
0000
,
1000
0001
1100
0000
1010
0000
0110
1000
0011
0100
1010
0100
0010
0001
1100
0001
,
1100
0001
1010
0000
0000
0000
0110
1000
0011
1000
0010
0000
0000
0000
0100
0001
,
0100
0001
0100
0000
0000
0000
0100
0001
0010
0100
1000
0010
0100
0001
0100
0010
,
2200
3300
0000
0000
0001
0000
0000
0000
1100
0000
0000
0000
0000
0000
0000
0000
0000
0000
0000
0000
0000
0000
0000
0000
0110
0000
0000
0000
1000
0000
0000
0000
0011
0000
0000
0000
1000
0000
0000
0000
0010
0000
0000
0000
0000
0000
0000
0000
0000
0000
0000
0000
0000
0000
0000
0000
0000
0000
0000
0000
0000
0000
0000
0000
,
0100
0001
1100
0000
1010
0001
0110
1000
0011
1000
0101
0010
0001
0010
1100
0001
,
2020
3030
0000
0000
0100
0000
0000
0000
1010
0000
0000
0000
0100
0000
0000
0000
0001
0000
0000
0000
1000
0000
0000
0000
0110
0000
0000
0000
1000
0000
0000
0000
0101
0000
0000
0000
0010
0000
0000
0000
0001
0000
0000
0000
0100
0000
0000
0000
0010
0000
0000
0000
1000
0000
0000
0000
0001
0000
0000
0000
0100
0000
0000
0000
,
1001
0010
1001
0010
0001
0010
0101
0010
0101
0010
0001
0010
1001
0000
0000
0000
,
0101
0010
0100
1000
0010
0100
0010
1000
0100
0010
0001
0100
0001
0010
0100
1000
,
0010
0100
0001
0100
0010
1000
0100
0010
1000
0010
0100
1000
0010
0100
0001
0010
,
1001
0100
1001
0010
0100
1000
0011
0100
0011
1000
0001
0000
1010
0100
1001
0100
,
0001
0010
0001
0010
0100
0001
0100
0001
1000
0010
1000
0010
1000
0100
1000
0100
,
2002
3003
0000
0000
0010
0000
0000
0000
1000
0000
0000
0000
0010
0000
0000
0000
0101
0000
0000
0000
0010
0000
0000
0000
1000
0000
0000
0000
0010
0000
0000
0000
1000
0000
0000
0000
0010
0000
0000
0000
0101
0000
0000
0000
0010
0000
0000
0000
0100
0000
0000
0000
0010
0000
0000
0000
1001
0000
0000
0000
0100
0000
0000
0000
,
1001
0100
0010
1000
0001
1000
0100
0010
1000
0001
1000
0100
0010
1000
0001
1000
,
0202
0303
0000
0000
0010
0000
0000
0000
0001
0000
0000
0000
0100
0000
0000
0000
0010
0000
0000
0000
1000
0000
0000
0000
0022
0033
0000
0000
0100
0000
0000
0000
0001
0000
0000
0000
0100
0000
0000
0000
0010
0000
0000
0000
1000
0000
0000
0000
0220
0330
0000
0000
1000
0000
0000
0000
0100
0000
0000
0000
0010
0000
0000
0000
,
0001
0100
0010
1000
0001
0100
0010
1000
0100
1000
0010
0100
0001
0010
0001
0010
,
0202
0303
0000
0000
0010
0000
0000
0000
0100
0000
0000
0000
1000
0000
0000
0000
0010
0000
0000
0000
0001
0000
0000
0000
1100
0000
0000
0000
0001
0000
0000
0000
1100
0000
0000
0000
0001
0000
0000
0000
1010
0000
0000
0000
0100
0000
0000
0000
1000
0000
0000
0000
0100
0000
0000
0000
0011
0000
0000
0000
1000
0000
0000
0000
,
0101
0010
0100
0001
0010
0001
1100
0001
1100
0001
1010
0100
0001
1000
0011
0100
,
1010
0001
0100
0010
1000
0100
1010
0001
1010
0100
1001
0100
0010
0100
0011
0100
,
1010
0100
0001
0010
0100
1000
0001
1000
0010
0100
1010
0001
0010
1000
0110
1000
,
0101
0010
0001
0100
0010
0001
1100
0001
1100
0001
1010
0100
1000
0100
0011
1000
,
0101
0010
0100
0001
0010
0001
1100
0001
1100
0010
1001
0100
1000
0001
0110
1000
,
0101
1000
0011
0100
0001
1010
0100
1000
0011
0100
1010
0001
0110
0001
1010
0100
,
1001
0000
0000
0000
0010
0000
0000
0000
0100
0000
0000
0000
1000
0000
0000
0000
0001
0000
0000
0000
0010
0000
0000
0000
0100
0000
0000
0000
1000
0000
0000
0000
0010
0000
0000
0000
0100
0000
0000
0000
2002
3003
0000
0000
0010
0000
0000
0000
0101
0000
0000
0000
1000
0000
0000
0000
0001
0000
0000
0000
0100
0000
0000
0000
,
0022
0033
0000
0000
0100
0000
0000
0000
0011
0000
0000
0000
0100
0000
0000
0000
0010
0000
0000
0000
0001
0000
0000
0000
1100
0000
0000
0000
0001
0000
0000
0000
1100
0000
0000
0000
0001
0000
0000
0000
1010
0000
0000
0000
0100
0000
0000
0000
1000
0000
0000
0000
0010
0000
0000
0000
0101
0000
0000
0000
0010
0000
0000
0000
,
1001
0100
0010
1000
0100
0001
1100
0001
1100
0001
1010
0100
0001
0100
0011
1000
,
0101
0010
0100
1000
0010
0001
1100
0001
1100
0001
1010
0100
0010
0001
0110
1000
,
0101
1000
0011
0100
1000
0100
0011
0100
1001
0010
0001
0010
0101
0010
0100
1000
,
0011
0100
1000
0010
0100
0001
1010
0100
1010
0100
1001
0010
0100
1000
0011
0100
,
1001
0100
0010
1000
0100
0001
1100
0001
1100
0001
1010
0001
0010
1000
0110
1000
,
0202
0303
0000
0000
0010
0000
0000
0000
0100
0000
0000
0000
1000
0000
0000
0000
0001
0000
0000
0000
1000
0000
0000
0000
0001
0000
0000
0000
0100
0000
0000
0000
0010
0000
0000
0000
1000
0000
0000
0000
0001
0000
0000
0000
1000
0000
0000
0000
0001
0000
0000
0000
0010
0000
0000
0000
0100
0000
0000
0000
1000
0000
0000
0000
,
0100
0000
0000
0000
0010
0000
0000
0000
0001
0000
0000
0000
0100
0000
0000
0000
0010
0000
0000
0000
0001
0000
0000
0000
1000
0000
0000
0000
0100
0000
0000
0000
0010
0000
0000
0000
0001
0000
0000
0000
1000
0000
0000
0000
0010
0000
0000
0000
0202
0303
0000
0000
0000
0000
0000
0000
0110
0000
0000
0000
0000
0000
0000
0000
,
0202
0303
0000
0000
0010
0000
0000
0000
0100
0000
0000
0000
1000
0000
0000
0000
0010
0000
0000
0000
0001
0000
0000
0000
1100
0000
0000
0000
0001
0000
0000
0000
1100
0000
0000
0000
0001
0000
0000
0000
1010
0000
0000
0000
0100
0000
0000
0000
0001
0000
0000
0000
0100
0000
0000
0000
0011
0000
0000
0000
1000
0000
0000
0000
,
0101
0010
0100
1000
0010
0001
1100
0001
1100
0001
1010
0100
1000
0100
0011
0100
,
1001
0010
0001
0100
0010
0100
1010
0001
1100
0010
1001
0100
1000
0100
0011
0100
,
1010
0100
0001
0100
0010
1000
0100
0001
0100
0010
1100
0010
0001
1000
0110
1000
,
0011
0100
0010
1000
0100
0001
1100
0001
1100
0001
1010
0100
1000
0100
0011
0100
,
1010
0100
0001
0010
0100
0001
1010
0001
1100
0010
1001
0100
1000
0100
0011
0100
,
1010
0000
0000
0000
0100
0000
0000
0000
0010
0000
0000
0000
1001
0000
0000
0000
0100
0000
0000
0000
0010
0000
0000
0000
1100
0000
0000
0000
0001
0000
0000
0000
1010
0000
0000
0000
0001
0000
0000
0000
1100
0000
0000
0000
0001
0000
0000
0000
0110
0000
0000
0000
1000
0000
0000
0000
0202
0303
0000
0000
0010
0000
0000
0000
,
1001
0010
0100
0010
0001
0010
0100
0010
0001
0010
0100
0010
0001
0010
0100
0010
,
0001
0100
0010
0100
0001
0100
0010
0100
1000
0010
0100
0010
1000
0010
0100
0010
,
1000
0100
0010
0100
1000
0100
0010
0100
0001
1000
0010
1000
0001
1000
0010
1000
,
0100
0010
0001
0010
0100
0010
0001
0010
1000
0100
0001
0100
1000
0100
0001
0100
,
1000
0010
0001
0010
1000
0010
0001
0010
0001
0100
0010
0100
0001
0100
0010
0100
,
0022
0033
0000
0000
0100
0000
0000
0000
1000
0000
0000
0000
0100
0000
0000
0000
0010
0000
0000
0000
0100
0000
0000
0000
1000
0000
0000
0000
0100
0000
0000
0000
0001
0000
0000
0000
0010
0000
0000
0000
1000
0000
0000
0000
0010
0000
0000
0000
0001
0000
0000
0000
0010
0000
0000
0000
1000
0000
0000
0000
0010
0000
0000
0000
,
0202
0303
0000
0000
0010
0000
0000
0000
1000
0000
0000
0000
0001
0000
0000
0000
0010
0000
0000
0000
0100
0000
0000
0000
1000
0000
0000
0000
0010
0000
0000
0000
0100
0000
0000
0000
0010
0000
0000
0000
1000
0000
0000
0000
0001
0000
0000
0000
0010
0000
0000
0000
0100
0000
0000
0000
0001
0000
0000
0000
0100
0000
0000
0000
,
1010
0001
0100
0011
0100
0001
1100
0001
0100
0011
0100
0001
1100
0000
0110
0000
,
1100
0001
0010
0100
1000
0010
0100
0010
0001
0100
0001
0100
0010
1000
0010
1000
,
0202
0303
0000
0000
1000
0000
0000
0000
0100
0000
0000
0000
1000
0000
0000
0000
0100
0000
0000
0000
1000
0000
0000
0000
0010
0000
0000
0000
1000
0000
0000
0000
0010
0000
0000
0000
1000
0000
0000
0000
0010
0000
0000
0000
1000
0000
0000
0000
0001
0000
0000
0000
0100
0000
0000
0000
0001
0000
0000
0000
0100
0000
0000
0000
,
0010
1000
0010
1000
0010
1000
0001
0010
0001
0010
0001
0010
0100
1000
0100
1000
,
0010
0100
0010
0100
0010
0100
0001
0010
0001
0010
0001
0010
0100
0010
0100
0010
,
1000
0010
1000
0010
1000
0010
0100
0010
0100
0010
0100
0010
0001
0100
0001
0100
,
0001
0010
0001
0010
0001
0010
0100
1000
0100
1000
0100
1000
0010
1000
0010
1000
,
0010
1000
0010
1000
0010
1000
0001
0100
0001
0100
0001
0100
0010
0100
0010
0100
,
1000
0100
0010
0100
1000
0100
0010
0100
1000
0100
0010
0001
0010
0100
0010
0001
,
0010
0001
0010
0001
0010
0001
0100
0001
0100
0001
0100
0001
0100
0010
0100
0010
,
0202
0303
0000
0000
1000
0000
0000
0000
0100
0000
0000
0000
1000
0000
0000
0000
0100
0000
0000
0000
1000
0000
0000
0000
0010
0000
0000
0000
0100
0000
0000
0000
0010
0000
0000
0000
0100
0000
0000
0000
0010
0000
0000
0000
0100
0000
0000
0000
0001
0000
0000
0000
0010
0000
0000
0000
0001
0000
0000
0000
0010
0000
0000
0000
,
0100
1000
0100
1000
0100
1000
0100
0001
0100
0001
0100
0001
0010
0001
0010
0001
,
1000
0010
1000
0010
1000
0010
1000
0001
1000
0001
1000
0001
0100
0001
0100
0001
,
0010
1000
0010
1000
0010
1000
0001
0100
0001
0100
0001
0100
0010
0001
0010
0001
,
2200
3300
0000
0000
0010
0000
0000
0000
1000
0000
0000
0000
0010
0000
0000
0000
1000
0000
0000
0000
0010
0000
0000
0000
0100
0000
0000
0000
0010
0000
0000
0000
0100
0000
0000
0000
0010
0000
0000
0000
0100
0000
0000
0000
0010
0000
0000
0000
0001
0000
0000
0000
0100
0000
0000
0000
0001
0000
0000
0000
0100
0000
0000
0000
,
0010
1000
0010
1000
0010
1000
0001
0010
0001
0010
0001
0010
1000
0010
1000
0010
,
0202
0303
0000
0000
1000
0000
0000
0000
0100
0000
0000
0000
0010
0000
0000
0000
1000
0000
0000
0000
0100
0000
0000
0000
0022
0033
0000
0000
1000
0000
0000
0000
0010
0000
0000
0000
0001
0000
0000
0000
0100
0000
0000
0000
0010
0000
0000
0000
0001
0000
0000
0000
1000
0000
0000
0000
0100
0000
0000
0000
0010
0000
0000
0000
,
0001
0100
0010
0100
1000
0010
0100
0010
1000
0100
0010
0001
0220
0000
0330
0000
,
1100
0001
0010
0100
1000
0100
0010
1000
0100
0001
0010
0100
1000
0010
0001
0100
,
1010
0001
0100
0010
1000
0001
0110
1000
0010
1000
0100
0010
0101
0010
0100
1000
,
2222
3333
0000
0000
0000
0000
0000
0000
;
